Внимание! Роскомнадзор всбесился! Добавь зеркала new-rutor.org и xrutor.org в закладки, когда один заблокирован другой работает! Так блокировка не будет иметь значения! Нью-рутор.орг сейчас заблокирован в РФ и теперь для рутор.орг и new-rutor.org зеркало это данный ресурс

СеняФедя [S01-02] (2018-2019) WEB-DLRip от GeneralFilm | КПК




Информация о фильме
Оригинальное название: СеняФедя
Год выхода: 2018
Жанр: Комедия
Режиссер: Антон Федотов
В ролях: Сергей Лавыгин, Михаил Тарабукин, Анна Бегунова, Ирина Серова, Леся Кудряшова, Сергей Марухин, Дмитрий Мазуров, Анастасия Шумилкина, Юлия Беляева, Никита Абдулов

О фильме:
Сеня и Федя решают открыть собственный бизнес — закусочную на колёсах. Совместная работа не ладится с первого дня, но разойтись друзья не могут, ведь ничто так не объединяет людей, как совместный кредит. Попав в мир деловых отношений, парни сталкиваются не только с проблемой поиска компромиссов, но и с крупной сетью фудтраков, стремящихся вытеснить с улиц всех конкурентов. На фоне борьбы с акулами гастрономического бизнеса друзья не заметят, как поменяются ролями на личной «кухне»: семьянин Сеня попробует на вкус холостяцкую жизнь, а бабник Федя отправится на поиски тихой семейной гавани.



Страна: Россия
Студия: PICK UP FILM по заказу телеканала СТС
Продолжительность: 22 х ~ 00:23:00
Перевод: Не требуется

Файл
Формат: MP4
Качество: WEB-DLRip | КПК
Видео: MPEG-4 AVC (x264), 640x360, ~500 kbps, 25.000 fps
Аудио: AAC LC, 44.14 KHz, 2 ch, 128 Kbps
Субтитры: Нет

Семпл

Скриншоты

hide=MI]Complete name : F:КИНОSenyaFedya.AVC.KPK.GFSenyaFedya.S01.2018.AVC.WEB-DLRip.KPK.GFSenyaFedya.s01e03.2018.AVC.WEB-DLRip.KPK.GF.mp4
Format : MPEG-4
Codec ID : M4V (isom/iso2/avc1)
File size : 104 MiB
Duration : 22 min 57 s
Overall bit rate mode : Variable
Overall bit rate : 634 kb/s
Writing application : Lavf53.19.0

Video
ID : 1
Format : AVC
Format/Info : Advanced Video Codec
Format profile : High@L4.1
Format settings, CABAC : Yes
Format settings, RefFrames : 8 frames
Codec ID : avc1
Codec ID/Info : Advanced Video Coding
Duration : 22 min 57 s
Bit rate : 500 kb/s
Width : 640 pixels
Height : 360 pixels
Display aspect ratio : 16:9
Frame rate mode : Constant
Frame rate : 25.000 FPS
Color space : YUV
Chroma subsampling : 4:2:0
Bit depth : 8 bits
Scan type : Progressive
Bits/(Pixel*Frame) : 0.087
Stream size : 82.1 MiB (79%)
Writing library : x264 core 148 r2638 7599210
Encoding settings : cabac=1 / ref=8 / deblock=1:-1:-1 / analyse=0x3:0x133 / me=umh / subme=10 / psy=1 / psy_rd=1.00:0.00 / mixed_ref=1 / me_range=24 / chroma_me=1 / trellis=2 / 8x8dct=1 / cqm=0 / deadzone=21,11 / fast_pskip=1 / chroma_qp_offset=-2 / threads=6 / lookahead_threads=1 / sliced_threads=0 / nr=0 / decimate=1 / interlaced=0 / bluray_compat=0 / constrained_intra=0 / bframes=8 / b_pyramid=2 / b_adapt=2 / b_bias=0 / direct=3 / weightb=1 / open_gop=0 / weightp=2 / keyint=250 / keyint_min=126 / scenecut=40 / intra_refresh=0 / rc_lookahead=40 / rc=2pass / mbtree=1 / bitrate=500 / ratetol=1.0 / qcomp=0.60 / qpmin=0 / qpmax=69 / qpstep=4 / cplxblur=20.0 / qblur=0.5 / ip_ratio=1.40 / aq=1:1.00
Menus : 3

Audio
ID : 2
Format : AAC
Format/Info : Advanced Audio Codec
Format profile : LC
Codec ID : 40
Duration : 22 min 57 s
Bit rate mode : Variable
Bit rate : 128 kb/s
Channel(s) : 2 channels
Channel positions : Front: L R
Sampling rate : 44.1 kHz
Frame rate : 43.066 FPS (1024 SPF)
Compression mode : Lossy
Stream size : 21.0 MiB (20%)
Default : Yes
Alternate group : 1
Menus : 3
[/hide]
Релиз от:
Залилtoys_watch
ОценкаНикто ещё не поставил оценку
КатегорияНаши сериалы
Раздают1
Качают9
Сидер замечен11-06-2019 11:19:12 (20 минут назад)
Добавлен11-06-2019 10:29:55 (1 час назад)
Размер2.27 GB (2434319362 Bytes)
Добавить в закладки
Связанные раздачи
ДобавленНазваниеРазмерПиры
01 Июн 19D M СеняФедя [S02] (2019) WEB-DLRip от Generalfilm | КПК 2C 1.05 GBS 17 L 7
30 Май 19D M СеняФедя [S02] (2019) WEB-DL 720p 7.21 GBS 41 L 14
30 Май 19D M СеняФедя [S02] (2019) WEB-DLRip от Files-x 1C 3.55 GBS 43 L 22
29 Май 19D M СеняФедя [S02] (2019) WEB-DLRip-AVC от Files-x 16C 3.60 GBS 46 L 25
25 Янв 19D M СеняФедя [S01] (2018) WEB-DLRip от MegaPeer 2.00 GBS 15 L 2
13 Янв 19D M СеняФедя [S01] (2018) WEB-DL 1080p от ExKinoRay 1C 9.35 GBS 24 L 3
11 Дек 18D M СеняФедя [S01] (2018) WEBRip от Generalfilm | КПК 2C 962.33 MBS 10 L 3
Файлы (22)




up
Все файлы предоставлены пользователями сайта для свободного обмена. Рутор.org и наши серверы не располагают какими-либо цифровыми копиями аудио-визуальных произведений, мы храним только информацию о них и торрент-файлы, загруженными пользователями для обмена. Для направления жалоб на нарушения исключительных авторских прав, пожалуйста, пишите на email pollyfuckingshit(гав-гав)ro[точка]ру с темой "abuse"